Ответить в теме
Страница 3 из 3
‌ 1 2 3

Тема: BF2: Падает FPS во время записи видео, есть FIX!

  1. #1
    Аватар для Antieverything
    Регистрация
    23.02.2010
    Возраст
    36
    Сообщений
    8,394
    Поблагодарили 7,745 раз(а)
    Вес репутации: 100

    info BF2: Падает FPS во время записи видео, есть FIX!


    WTF, подумал я, неужели шести-ядерного процессора, 16-ти Гб оперативы и карты с 670-м чипом да 4-мя гигами памяти не хватает записать видео с игры 2005 года?

    Но факт остается фактом, при записи даже в RAW без какого-либо сжатия, fps проседает до ~17
    Перепробовав практически весь основной софт в этой области, включая Bandicam, которым я без проблем пишу видео с демок, но в сингле и мультике он тоже творит слайдшоу, ...я нашел.




    Dxtory без потери фпс пишет видео, сжимая его до приемлемых размеров налету.

    В общем, если есть лаги и проседание фпс при записи, забываем про FRAPS, Playclaw, Bandicam и юзаем Dxtory

    Второе место у Mirillis Action!



    Action! сохраняет в avi контейнер Fast Intra Compression Video кодеком
    Dxtory также использует собственный кодек xtory

    Абсолютно безлаговый вариант Dxtory:



    С такими настройками фпс практически не падал и держался около максимально залоченной сотни.


    С FICV на моей машине удалось получить 50-65 фпс, но видео иногда подлагивало (секундные фризы).

    В целом качество картинки Dxtory на Low Quality достаточно хорошее и даже детализированней, чем FICV на максимуме, но сжатие визуально негативно влияет на красный спектр:

    Dxtory Low Quality

    FICV Best Quality

    и если это не критично, то он идеален

    Еще о плюсах DXTORY - если "бутылочным горлышком" при записи видео служит пропускная способность диска, что в общем-то случается очень часто, во первых механические диски просто не держат заявленную скорость в принципе, так еще и не держат ее линейно, а "убивать" твердотельный диск игровым видео станет не каждый, так вот, программа позволяет назначить несколько дисков сразу и суммировать их скорости при прогонке потока.

    Сухие цифры:

    Видеокодек : xtor (Low Quality)
    File size : 4.07 GiB
    Duration : 1mn 4s
    Overall bit rate : 539 Mbps
    Bits/(Pixel*Frame) : 8.977
    Stream size : 4.06 GiB (100%)

    Видеокодек : FICV (Best Quality)
    File size : 691 MiB
    Duration : 1mn 1s
    Overall bit rate : 94.8 Mbps
    Bits/(Pixel*Frame) : 1.557
    Stream size : 680 MiB (98%)



  2. 9 сказали спасибо
  3. #21
    Аватар для ViTaliy
    Регистрация
    26.08.2010
    Адрес
    Омск
    Возраст
    23
    Сообщений
    1,757
    Поблагодарили 542 раз(а)
    Вес репутации: 47
    Цитата Сообщение от Antieverything
    Убедись, что настройки идеально совпадают, если все абсолютно идентично, попробуй наоборот поиграть со значениями.
    Идеально совпадают) , пощелкаем, может че путнее выйдет.

    Цитата Сообщение от Antieverything
    в интырнетах есть ломанные версии
    Поищу конечно, а то рублик к баксу не очень для таких программулек) , хотя кому как)

  4. #22
    Модератор форума
    Почетный донорBOSS Mafia Club
    Аватар для corpse_alive
    Регистрация
    09.10.2010
    Сообщений
    15,701
    Поблагодарили 15,106 раз(а)
    Вес репутации: 296
    Цитата Сообщение от ViTaliy
    Action! даёт более - менее приемлемый фпс, но когда записываю в качество 720, затем экспортирую немного сжав, то получается 480 на youtube
    Для Ютуба надо в mp4 записывать, тогда можно напрямую туда закачивать, если в .avi захватывать, то Ютуб кодек Мириллиса "не понимает".

  5. Пользователь сказал cпасибо:
  6. #23
    Аватар для ViTaliy
    Регистрация
    26.08.2010
    Адрес
    Омск
    Возраст
    23
    Сообщений
    1,757
    Поблагодарили 542 раз(а)
    Вес репутации: 47
    Цитата Сообщение от corpse_alive
    Для Ютуба надо в mp4 записывать
    Спасиб! Я записывал в avi и после экспорта в mp4 и монтажа получилось: ширина кадра - 640, высота - 480. 720 было в записи, сжимал совсем немного. Наверно ещё с моим моником 1280х1024 так вышло).

  7. #24
    ывйцкйцуфыв Аватар для Sn1p
    Регистрация
    20.07.2014
    Сообщений
    711
    Поблагодарили 231 раз(а)
    Вес репутации: 22
    Я пишу в raw, на 4 харда, 60fps, на medium quality, Dxtory кодеком.

  8. Пользователь сказал cпасибо:
  9. #25
    ывйцкйцуфыв Аватар для Sn1p
    Регистрация
    20.07.2014
    Сообщений
    711
    Поблагодарили 231 раз(а)
    Вес репутации: 22
    Провел экперимент. Попытка сравнить потерю fps при записи видео с игры BF4 в разных режимах.
    Запись велась ровно 1 мин (fraps benchmark) на учебном полигоне в BF4, стоя на респе.
    зы. в случае с Dxtory на 2 жестких диска.


    Без записи (100 % без потери)
    Для просмотра скрытого содержимого - нажмите сюда


    Запись (AMD Gaming Evolved) 50 мб/сек 30 fps 1080р (12.68 % потеря)
    Для просмотра скрытого содержимого - нажмите сюда


    Запись (AMD Gaming Evolved) 50 мб/сек 60 fps 1080р(32,97 % потеря)
    Для просмотра скрытого содержимого - нажмите сюда


    Запись Dxtory raw cap. 1080p 60 fps Low quality (dxroty codec) (41,37 % потеря)
    Для просмотра скрытого содержимого - нажмите сюда
    Последний раз редактировалось Sn1p; 27.04.2016 в 01:20.

  10. 2 сказали спасибо
  11. #26
    Аватар для Antieverything
    Регистрация
    23.02.2010
    Возраст
    36
    Сообщений
    8,394
    Поблагодарили 7,745 раз(а)
    Вес репутации: 100
    Там же в общем много настроек, влияющих на фпс и от версии программы зависит, но в целом интересно.

  12. #27
    ывйцкйцуфыв Аватар для Sn1p
    Регистрация
    20.07.2014
    Сообщений
    711
    Поблагодарили 231 раз(а)
    Вес репутации: 22
    У Dxrtory настройки были такие -
    Для просмотра скрытого содержимого - нажмите сюда

    AMD gaming evolved как то так -
    Для просмотра скрытого содержимого - нажмите сюда

    Вообще такое ощущение, что когда играешь с AMD gaming evolved с включенной функцией записи - что часть фпс она съедает, и без запущеной вручную записи видео. НО зато можно всегда записать последние 1-10 мин своей игры :) что просто офегенно.

Ответить в теме
Страница 3 из 3
‌ 1 2 3

Метки этой темы