Ответить в теме
Страница 1 из 3
1 2 3 ‌

Тема: BF2: Падает FPS во время записи видео, есть FIX!

  1. #1
    Аватар для Antieverything
    Регистрация
    23.02.2010
    Возраст
    36
    Сообщений
    8,354
    Поблагодарили 7,670 раз(а)
    Вес репутации: 100

    info BF2: Падает FPS во время записи видео, есть FIX!


    WTF, подумал я, неужели шести-ядерного процессора, 16-ти Гб оперативы и карты с 670-м чипом да 4-мя гигами памяти не хватает записать видео с игры 2005 года?

    Но факт остается фактом, при записи даже в RAW без какого-либо сжатия, fps проседает до ~17
    Перепробовав практически весь основной софт в этой области, включая Bandicam, которым я без проблем пишу видео с демок, но в сингле и мультике он тоже творит слайдшоу, ...я нашел.




    Dxtory без потери фпс пишет видео, сжимая его до приемлемых размеров налету.

    В общем, если есть лаги и проседание фпс при записи, забываем про FRAPS, Playclaw, Bandicam и юзаем Dxtory

    Второе место у Mirillis Action!



    Action! сохраняет в avi контейнер Fast Intra Compression Video кодеком
    Dxtory также использует собственный кодек xtory

    Абсолютно безлаговый вариант Dxtory:



    С такими настройками фпс практически не падал и держался около максимально залоченной сотни.


    С FICV на моей машине удалось получить 50-65 фпс, но видео иногда подлагивало (секундные фризы).

    В целом качество картинки Dxtory на Low Quality достаточно хорошее и даже детализированней, чем FICV на максимуме, но сжатие визуально негативно влияет на красный спектр:

    Dxtory Low Quality

    FICV Best Quality

    и если это не критично, то он идеален

    Еще о плюсах DXTORY - если "бутылочным горлышком" при записи видео служит пропускная способность диска, что в общем-то случается очень часто, во первых механические диски просто не держат заявленную скорость в принципе, так еще и не держат ее линейно, а "убивать" твердотельный диск игровым видео станет не каждый, так вот, программа позволяет назначить несколько дисков сразу и суммировать их скорости при прогонке потока.

    Сухие цифры:

    Видеокодек : xtor (Low Quality)
    File size : 4.07 GiB
    Duration : 1mn 4s
    Overall bit rate : 539 Mbps
    Bits/(Pixel*Frame) : 8.977
    Stream size : 4.06 GiB (100%)

    Видеокодек : FICV (Best Quality)
    File size : 691 MiB
    Duration : 1mn 1s
    Overall bit rate : 94.8 Mbps
    Bits/(Pixel*Frame) : 1.557
    Stream size : 680 MiB (98%)



  2. 9 сказали спасибо
  3. #2
    Модератор форума
    Почетный донорBOSS Mafia Club
    Аватар для corpse_alive
    Регистрация
    09.10.2010
    Сообщений
    15,686
    Поблагодарили 15,071 раз(а)
    Вес репутации: 295
    Жаль, что Mirillis не поддерживает XP.

  4. #3
    Аватар для Antieverything
    Регистрация
    23.02.2010
    Возраст
    36
    Сообщений
    8,354
    Поблагодарили 7,670 раз(а)
    Вес репутации: 100
    Возможно на ХР пойдет Dxtory, он тоже вполне не плох.

    Вот кстати, пример работы 720х30 (+ аццкая потеря качества на самом ютубе)


  5. 2 сказали спасибо
  6. #4
    Мажор Аватар для HapKoTuK
    Регистрация
    10.08.2010
    Адрес
    Jelgava , Latvia
    Возраст
    28
    Сообщений
    1,346
    Поблагодарили 731 раз(а)
    Вес репутации: 49
    Мелкомягкие теперь тоже не поддерживают ХР )))

    ---------- Сообщение добавлено в 22:10 ---------- Предыдущее сообщение было в 22:09 ----------

    круто надо попробовать

  7. #5
    Аватар для Antieverything
    Регистрация
    23.02.2010
    Возраст
    36
    Сообщений
    8,354
    Поблагодарили 7,670 раз(а)
    Вес репутации: 100

    info


  8. 3 сказали спасибо
  9. #6
    Мажор Аватар для HapKoTuK
    Регистрация
    10.08.2010
    Адрес
    Jelgava , Latvia
    Возраст
    28
    Сообщений
    1,346
    Поблагодарили 731 раз(а)
    Вес репутации: 49
    Спасибо наконецто могу писать фрагмуви

  10. 2 сказали спасибо
  11. #7

    Регистрация
    08.07.2011
    Адрес
    г. Иркутск
    Возраст
    28
    Сообщений
    247
    Поблагодарили 164 раз(а)
    Вес репутации: 0
    Надо будет попробовать ! :) хорошая тема

  12. #8
    Аватар для wetchislaf
    Регистрация
    29.08.2010
    Возраст
    28
    Сообщений
    2,467
    Поблагодарили 519 раз(а)
    Вес репутации: 50
    А у меня не работает FICV Codec, по нажатию клавиши записи видео, выпадает ошибка. После клика по кнопочке ОК, батла закрывается.
    Версия Dxtory 2.0.122
    Настройки FICV кодека нету, возможно сам кодек остался после Mirillis Action!, но частично потёрся после его удаляения.
    Вопрос: Как вернуть кодек к жизни?
    P.S.: Mirillis Action! ставил обратно, кодек всеровно не заработал
    Для просмотра скрытого содержимого - нажмите сюда
    Последний раз редактировалось wetchislaf; 13.02.2014 в 14:39.

  13. #9
    Аватар для Antieverything
    Регистрация
    23.02.2010
    Возраст
    36
    Сообщений
    8,354
    Поблагодарили 7,670 раз(а)
    Вес репутации: 100
    А непосредственно сам Action! пишет в свой кодек?

  14. #10
    Аватар для wetchislaf
    Регистрация
    29.08.2010
    Возраст
    28
    Сообщений
    2,467
    Поблагодарили 519 раз(а)
    Вес репутации: 50
    Цитата Сообщение от Antieverything
    А непосредственно сам Action! пишет в свой кодек?
    Да, Action! пишет. будь он не ладен...

    ---------- Сообщение добавлено в 18:21 ---------- Предыдущее сообщение было в 18:12 ----------

    Походу Dxtory просто не совместим с этим кодеком

Ответить в теме
Страница 1 из 3
1 2 3 ‌

Метки этой темы